Yu-Gi-Oh! Duel Monsters 01-49

Post bài tổng hợp lại season 1 cho tiện theo dõi 😀
Mediafire Folder

Advertisements
    • Anonymous
    • November 27th, 2011

    Anh oi, em down ve` dc nhung luc mo? ra thi` hinh anh? chay truoc am thanh. Fix kieu j ha? anh

      • tezukashinkai
      • November 27th, 2011

      Em vào phần “Hướng dẫn” rồi down K-lite codec pack mới nhất

    • Anonymous
    • November 30th, 2011

    hic, tưởng Bác Tân bỏ lun anh em ko làm yugi nữa chứ, đợi lâu lắm rồi đó hic hic

    • ^^
    • January 9th, 2012

    anh làm ơn cho em hỏi, sao em xem info của file, thấy file nào cũng là 44 phút mà trong khi film có 22 phút, xem trên máy tính em kéo đến đoạn cuối, phim nó bị đứng 😦

    • bạn xem info ở đâu?

      ko thể nào đưa sai thông tin file

        • ^^
        • January 10th, 2012

        em dùng soft đi kèm của bộ K-lite codec pack là Mediainfo ấy 😦
        General
        Complete name : C:\Users\DanielPan\Documents\Downloads\Compressed\[T-suki] Yu-Gi-Oh! Duel Monsters 031 [Vietsub] [A068C16D].mp4
        Format : MPEG-4
        Format profile : Base Media
        Codec ID : isom
        File size : 179 MiB
        Duration : 44mn 12s
        Overall bit rate mode : Variable
        Overall bit rate : 566 Kbps
        Encoded date : UTC 2011-03-05 06:26:26
        Tagged date : UTC 2011-03-05 06:26:26

        Video
        ID : 1
        Format : AVC
        Format/Info : Advanced Video Codec
        Format profile : High@L3.1
        Format settings, CABAC : Yes
        Format settings, ReFrames : 10 frames
        Codec ID : avc1
        Codec ID/Info : Advanced Video Coding
        Duration : 44mn 12s
        Bit rate : 407 Kbps
        Nominal bit rate : 1 000 Kbps
        Maximum bit rate : 9 343 Kbps
        Width : 640 pixels
        Height : 480 pixels
        Display aspect ratio : 4:3
        Frame rate mode : Constant
        Frame rate : 23.976 fps
        Color space : YUV
        Chroma subsampling : 4:2:0
        Bit depth : 8 bits
        Scan type : Progressive
        Bits/(Pixel*Frame) : 0.055
        Stream size : 129 MiB (72%)
        Writing library : x264 core 112 r1867 22bfd31
        Encoding settings : cabac=1 / ref=10 / deblock=1:1:1 / analyse=0x3:0x113 / me=umh / subme=8 / psy=1 / psy_rd=0.40:0.00 / mixed_ref=1 / me_range=16 / chroma_me=1 / trellis=1 / 8x8dct=1 / cqm=0 / deadzone=21,11 / fast_pskip=1 / chroma_qp_offset=-2 / threads=6 / sliced_threads=0 / nr=0 / decimate=1 / interlaced=0 / constrained_intra=0 / bframes=5 / b_pyramid=2 / b_adapt=2 / b_bias=0 / direct=3 / weightb=1 / open_gop=0 / weightp=2 / keyint=250 / keyint_min=23 / scenecut=70 / intra_refresh=0 / rc_lookahead=50 / rc=2pass / mbtree=1 / bitrate=1000 / ratetol=1.0 / qcomp=0.60 / qpmin=10 / qpmax=51 / qpstep=4 / cplxblur=20.0 / qblur=0.5 / vbv_maxrate=17500 / vbv_bufsize=14000 / nal_hrd=none / ip_ratio=1.40 / aq=1:0.60
        Encoded date : UTC 2011-03-05 05:51:39
        Tagged date : UTC 2011-03-05 06:26:27
        Material_Duration : 1326077
        Material_StreamSize : 165813163
        Material_FrameCount : 31794

        Audio
        ID : 2
        Format : AAC
        Format/Info : Advanced Audio Codec
        Format profile : LC
        Codec ID : 40
        Duration : 22mn 6s
        Bit rate mode : Variable
        Bit rate : 128 Kbps
        Maximum bit rate : 197 Kbps
        Channel(s) : 2 channels
        Channel positions : Front: L R
        Sampling rate : 48.0 KHz
        Compression mode : Lossy
        Stream size : 20.2 MiB (11%)
        Encoded date : UTC 2011-03-05 06:26:26
        Tagged date : UTC 2011-03-05 06:26:27

        • mình xem thông tin file film = mpc vẫn bình thường (22m)

          có cái là khi xem thông tin file trên cửa sổ window thì nó để là 44m lận

          cái này mình ko rõ

            • ^^
            • January 11th, 2012

            em có down bộ yugi này bên i-max, bên ấy tập từ 1 -> 29 của T-suki làm, em rất thik, vì sub đẹp và dịch rất chuẩn, còn tập từ 30 trở đi là bên i-max làm, em thấy khá sơ xài, nên em mới sang T-suki để down bản đúng của T-suki làm, bộ từ tập 30 trở đi em down tại đây thì chất lượng fim đẹp và sub tốt, nhưng những tập fim này thì việc encode có lẽ chưa đc tốt, mong các anh xem lại để có thể cung cấp cho mọi ng` những bản fim tốt nhất và xem dc trên mọi cấu hình máy, xin cám ơn 🙂

          • “chất lượng fim đẹp và sub tốt, nhưng những tập fim này thì việc encode có lẽ chưa đc tốt”

            ý bạn là sao nhỉ?

    • ^^
    • January 9th, 2012

    có tập khi xem trên K-lite codec pack bị mất tiếng nhưng khi xem trên jetaudio thì lại được :(( hok bik ghi ra đầu đĩa xem có đc hok nữa :((

    • ^^
    • January 12th, 2012

    ý em là, fim xem rất nét, sub hok sai chính tả và hiển thị đẹp, còn việc encode fim chưa tốt là có thể do máy tính của các encoder mạnh và cài đầy đủ những j để encode và check fim nên có lẽ hok thấy dc những bất cập khi xem trên nhìu cấu hình máy khác nhau, em xem cmt của bạn trên kia có nói cũng bị hình và tiếng lệch nhau (là khi ta bấm xem tại 1 đoạn bất kì trên fim, nó sẽ bị như thế) còn nếu để xem từ đầu đến cuối thì ko bị. xin cám ơn đã lắng nge em nói ^^

    • Xu Xu
    • June 9th, 2012

    Mất tiêu rùi mở folder ra không thấy gì cả….>”<

  1. No trackbacks yet.

Uốn lưỡi 7 lần, xỉa răng 8 lần, súc miệng 9 lần trước khi comment :))

Fill in your details below or click an icon to log in:

WordPress.com Logo

You are commenting using your WordPress.com account. Log Out / Change )

Twitter picture

You are commenting using your Twitter account. Log Out / Change )

Facebook photo

You are commenting using your Facebook account. Log Out / Change )

Google+ photo

You are commenting using your Google+ account. Log Out / Change )

Connecting to %s

%d bloggers like this: